Suzuka Nakamoto Height

Himeka has a slightly wider face and bigger eyes. Apr 29, 2019- Explore tomaricoy's board "Sakura Gakuin", followed by 193 people on Pinterest. Welcome to the Official Visit Seattle Event website. The band is produced by Kobametal from the Amuse talent agency. With music streaming on Deezer you can discover more than 56 million tracks, create your own playlists, and share your favourite tracks with your friends. The trio began as a subgroup of Sakura Gakuin, a more traditional-sounding J-pop act whose members leave the group once they graduate from junior high school. Please help by adding reliable sources. I didn't even really mind the addition of two new dancers that much. Also is good at singing, and learns choreography. and has been a member of three musical groups formed by the company: Karen Girl's, Sakura Gakuin, and Babymetal. 25 1st album 「Fly To The Future」. 2019- Explora el tablero de dilezuzu "sakura gakuin" en Pinterest. Suzuka Nakamoto's income source is mostly from being a successful Actor. The doctors proposed that they would play music that Yui listened to often in the waiting room, which at the time was the girl group Karen Girl's (future Babymetal co-member Suzuka Nakamoto performed in the group at the time). He is Allergic To Grass. Nakamoto Suzuka (中元ã™ãšé¦™) is a Japanese actress and singer under the agency Amuse. i wanna chat with Japanese ladies to become friends with, so i don't feel alone when i go to Japan. [1] Their producer Yasushi. Global shipping available. The slim and beautiful star has a height of 5′ 1″ (155 cm) while she weighs 82 lbs (37. She was the tallest member of the group throughout that time despite only being Elementary Year 6 (even taller than Suzuka-chan, who was the eldest student by then!). Enjoy the videos and music you love, upload original content, and share it all with friends, family, and the world on YouTube. 1k Followers, 57 Following, 178 Posts - See Instagram photos and videos from 中元すず香 (@suzuka. Nakamoto Suzuka (中元ã™ãšé¦™) is a Japanese actress and singer under the agency Amuse. Babymetal Su Metalという芸術品 Babymetalの黙示録. Himetan, お誕生日おめでとうございます!!!! Lovely Himeka Nakamoto turns 17 years old today, 4月13日-Hoping she has a great day today, with her family ( including her younger sister, Su-Metal) and friends!. 7歲的平均年齡更新女藝人紀錄 。. [1] Nogizaka46 Nogizaka46 was named after the location of the SME Nogizaka Building, which houses Sony Music Japan’s office. Suzuka Nakamoto is a beautiful and smart student, in fact she was a rich kid who makes her a little bit naughty and acted arbitrarily, at school she was very cruel act a fanfiction suzuka. An unlikely but fascinating collision of J-Pop and heavy metal, Tokyo's BABYMETAL features SU-METAL (Suzuka Nakamoto), MOAMETAL (Moa Kikuchi), and YUIMETAL (Yui Mizuno). 2015年首日,愛爾蘭媒體網站「The Arcade」的讀者票選中,獲得「2014最佳專輯獎」與「2014最佳樂團獎」 。 1月7日,武道館演唱會的現場專輯與影像作品發行,拿到公信榜周榜排名第3名與藍光綜合排行榜第1名的成績,以15. Who is Suzuka Nakamoto's boyfriend now? I'll introduce her lover and her lovelife. The doctors proposed that they would play music that Mizuno listened to often in the waiting room, which at the time was the girl group Karen Girl's (future Babymetal co-member Suzuka Nakamoto performed in the group at the time). Nakamoto Suzuka (中元すず香) is a Japanese actress and singer under the agency Amuse. Debiutancki singel tercetu zatytułowany Babymetal × Kiba of Akiba (jap. Interview- Sakura Gakuin `My Graduation Toss` April 30, 2015 Thomas Malone Leave a comment. Babymetal (stylized as BABYMETAL) is a Japanese heavy metal idol band. Suzuka was a member of the Four Rakshasa Demons, who served as the Prime Minister's squad of executioners. Suzuka Nakamoto 2. But everytime i see photos of the girls with other people, she does seem to be of average height. , She's now a mental health counselor and a student of Waseda University. Suzuka Nakamoto Family, Childhood, Life Achievements, Facts, Wiki and Bio of 2017. , Retired from the entertainment industry after she graduated. The trio began as a subgroup of Sakura Gakuin, a more traditional-sounding J-pop act whose members would leave the group once they graduated from junior high school. 226 Stream size : 313 MiB (94%) Color primaries : BT. txt) or read online for free. But, there are a few factors that will affect the statistics, so, the above figures may not be 100% accurate. We sell Babymetal Suzuka Nakamoto cosplay costume. She graduated from the group in January 2018, and retired from the entertainment industry. 32 and has charset utf-8 serves with en-us language. In 90s DVDs were invented, Sony PlayStation was released, Google was founded, and boy bands ruled the music charts. Facebook gives people the power. Archived from the original on November 19, On May 10,the promotional single “Broken Record” kfewella released. This biography of a living person needs additional citations for verification. film Babymetal Live: Legend 1999 & 1997 Apocalypse streaming vf,Babymetal Live: Legend 1999 & 1997 Apocalypse streaming dvdrip, regarder Babymetal Live: Legend 1999 & 1997 Apocalypse gratuitement, Babymetal Live: Legend 1999 & 1997 Apocalypse VK streaming, Babymetal Live: Legend 1999 & 1997 Apocalypse filmze gratuit, Babymetal Live: Legend 1999 & 1997 Apocalypse film complet, Babymetal Live. Genres: Alternative Metal, Trance Metal, J-Pop. The stories in "We Are Witnesses: Chicago" are not meant to soothe, but rather to agitate, to poke and prod our assumptions, to force us to wrangle with the way justice looks in Chicago. The trio began as a subgroup of Sakura Gakuin, a more traditional-sounding J-pop act whose members leave the group once they graduate from junior high school. Setelah itu ia mulai tampil dalam beberapa acara musikal. Searching for 'lolita'. Notable for her work in the J-pop and heavy metal genres, she joined both Sakura Gakuin (an all-female, Japanese pop music group) and Babymetal in 2010. Suzuka Nakamoto was born on December 20, 1997 in Hiroshima, Hiroshima, Japan. 51 et 外国の新聞の一面で派手に取り上げられてたのってブラジルだっけ?. Em março, Suzuka Nakamoto (Su-metal) se formou no ensino secundário e, portanto, "graduou" do Sakura Gakuin (deixou o grupo, que consiste em garotas de até secundário). com,1999:blog. Personal details As of end 2013, Suzuka's height is 156 cm, her weight is 37 kg. She has dark hair and dark eyes. Children and Height The 26-year older MC is a father of 3 children from prior relationships: sonsJordan and Kody,and daughter Kalea Marie. The concept is that Sakura Gakuin works as an academy. and earMUSIC in Europe. An unlikely but fascinating collision of J-Pop and heavy metal, Tokyo's BABYMETAL features SU-METAL (Suzuka Nakamoto), MOAMETAL (Moa Kikuchi), and YUIMETAL (Yui Mizuno). Facebook muestra información para que entiendas mejor la finalidad de una página. Suzuka Wallpaper. Notable for her work in the J-pop and heavy metal genres, she joined both Sakura Gakuin (an all-female, Japanese pop music group) and Babymetal in 2010. The 1990s is remembered as a decade of peace, prosperity and the rise of the Internet. Height: Nicki Minaj is 5 Suzuka Nakamoto born December. She has said many several times she wants to be a singer-songwriter in the future, and she mentioned YUI (who sang "Good-bye Days" etc. Suzuka was born in December 20, 1997 in Hiroshima. They studied together at the Actor's School Hiroshima (ASH) and sang together in a duo known as Tween. Ver más ideas sobre Bandas, Ruki the gazette y Kei visual. Her second sister, Himeka Nakamoto, was a member of the idol group Nogizaka46 (graduated January 2018). Suzuka Nakamoto (中元すず香): BABYMETAL Su Metal at 11-year-old (11歳の中元すず香ちゃん) Suzuka Nakamoto: ラベル: Music, Musician, People. Tyler Hubbard real name is Tyler Reed Hubbard. Did Babymetal invent 'cute metal' and what is it? Suzuka Nakamoto, 16, and 15-year-olds Moa Kikuchi and Yui Mizuno, formed a rock band without ever having heard metal music before. Japanese pop-metal phenoms Babymetal will be the stars of a hybrid live-action/animated action-adventure short-form series from Warner Bros. The source is a streaming program "Idol 36-bou" broadcast on 2013 Mar. The early lineup of BABYMETAL featured SU-METAL (Suzuka Nakamoto), MOAMETAL (Moa Kikuchi), and YUIMETAL (Yui Mizuno). Only a few years ago, Su-metal, Yuimetal and Moametal were in a J-pop group called Sakura Gakuin. Momoko Okazaki (岡崎百々子) is the 1st Ganbare! Chairman in Sakura Gakuin. She has also performed with the sub-groups Twinklestars, Minipati, and Black Babymetal. He has The Horsemen Tattoo On His Left Arm. [1] Nogizaka46 Nogizaka46 was named after the location of the SME Nogizaka Building, which houses Sony Music Japan’s office. She is represented by the talent agency Amuse, Inc. Suzuka Nakamoto, Actress: Zettai Karen Children. Jung Rae-Kyung and Min Yoon-Gi have known each other since they were only two and six years old respectively. Her older sister, Himeka Nakamoto, is a member of the band Nogizaka46. She is also a model. com Blogger 11 1 25 tag:blogger. But everytime i see photos of the girls with other people, she does seem to be of average height. Other Facts about  Suzuka Nakamoto 1. She is best known as the lead vocalist of kawaii metal band Babymetal. In addition to our riders, Michael van der Mark and Takumi Takahashi, who together have celebrated the past two victories , we are very happy to invite the legendary Casey Stoner to join our team. Their debut came on Feb 26, 2014, with the album "Babymetal". Before Debut Even though Babymetal debuted in 2013, the group was first formed in 2010 as a sub-unit of the very popular idol group, Sakura Gakuin. Nakamoto Suzuka (中元 すず香, born December 20, 1997, in Hiroshima Prefecture) is a former member of Sakura Gakuin and current singer and dancer in kawaii metal group Babymetal. Alissa White Gluz Height, Weight, Age, Biography, Measurements, Net Worth, Family, Affairs, Marriage, Wiki & much more! Alissa White Gluz was born on July 31, 1985 in Montreal, Canada. Height: 159cm Specialty: Dance, piano, back bridge Hobby: Playing musical instruments, singing songs Looks Up To: Suzuki Airi Trivia: • First appeared in an announcement on the official website on March 6, 2017. Suzuka Nakamoto. Suzuka Nakamoto was born on December 20, 1997 in Hiroshima, Hiroshima, Japan. She has a secret cosplay persona known as Dieus Long story. The Abundant World Presents,Suzuka Nakamoto (Suzuka/Su-metal) Boyfriend, Car, House, Net Worth, Family, Biography, Lifestyle. Number one BABYMETAL ベビーメタル source on the web we provide all the latest news, videos, photo, review about BABYMETAL, Sakura Gakuin - The Cherry Blossom Academy, Mini-Pati, Twinklestars, Pastel Wind and more. Suzuka Nakamoto is quite popular with a huge fan base. Looking for Richard Nakamoto ? PeekYou's people search has 16 people named Richard Nakamoto and you can find info, photos, links, family members and more. AFA SINGAPORE 2013! The largest annual anime in Singapore wrapped up beautifully! With over a dozen celebrities in town to perform, fans were treated to a weekend of ani-fun!. 8090 ext 100. She is represented by the talent agency Amuse, Inc. webpage capture. Suzuka Nakamoto was born on December 20, 1997 in Hiroshima, Hiroshima, Japan. Please help by adding reliable sources. Just browse our cheaper mizuno wave prophecy 7 grey red running shoes men women originals top quality sports sneakers shoes grayish violet size 36-45 for a good running. Suzuka Nakamoto (Su-metal) of Babymetal. They studied together at the Actor's School Hiroshima (ASH) and sang together in a duo known as Tween. Em março, Suzuka Nakamoto (Su-metal) se formou no ensino secundário e, portanto, "graduou" do Sakura Gakuin (deixou o grupo, que consiste em garotas de até secundário). The early lineup of BABYMETAL featured SU-METAL (Suzuka Nakamoto), MOAMETAL (Moa Kikuchi), and YUIMETAL (). She graduated January 2018. Nakamoto Suzuka (中元すず香) is a Japanese actress and singer under the agency Amuse. Biography An unlikely but fascinating collision of kawaii J-pop and heavy metal, Tokyo's BABYMETAL features SU-METAL (Suzuka Nakamoto), MOAMETAL (Moa Kikuchi), and YUIMETAL (Yui Mizuno). Suzuka Nakamoto is a member of famous people who are known for being a Pop Singer, celebrities who are 21 years old, was born in December, in the year 1997. The band consists of Suzuka Nakamoto as "Su-metal" (Vocal and Dance) and Moa Kikuchi as "Moametal" (Scream and Dance). Japanese pop-metal phenoms Babymetal will be the stars of a hybrid live-action/animated action-adventure short-form series from Warner Bros. I can't please everyone. Before her professional debut, Nakamoto was a student at the Actors School Hiroshima, whose graduates include Perfume. She is one of three girls who joined Sakura Gakuin in Spring 2012, and was the tallest member during the 2012 school year. Leaving the lineup due to health problems, remaining members Su-metal (Suzuka Nakamoto) and Moametal (Moa Kikuchi) take up the slack. She was the tallest member of the group throughout that time despite only being Elementary Year 6 (even taller than Suzuka-chan, who was the eldest student by then!). Lorem ipsum dolor sit amet, consectetur adipiscing elit, sed do eiusmod tempor incididunt ut labore et dolore magna aliqua. Member Post #5 - MARIRI SUGIMOTO Sugimoto Mariri-chan had a brief spell in Sakura Gakuin from May 2012 to March 2013. Also, have position in the list of those people who was born on June 20. Nakamoto Suzuka (中元すず香) is an actress, idol, and model under the agency Amuse. As far as we can. Mizuno and Suzuka Nakamoto are both known for their membership in Babymetal and Sakura Gakuin. Truth about Suzuka Nakamoto 1. Yui and Moa first became members of the "Baton Club" and its musical group Twinklestars and later together with Suzuka Nakamoto formed a heavy music club and its heavy metal-themed group Babymetal. "All the crybabies, get out of here!"archive. Join Facebook to connect with Suzuka Nakamoto and others you may know. The idol unit participated in Summer Sonic 2013 in Tokyo along with famous rock bands such as Muse, Metallica, Linkin Park, The Smashing Pumpkins, Fall Out Boy, One Ok Rock, Man with a Mission…. Notable for her work in the J-pop and heavy metal genres, she joined both Sakura Gakuin (an all-female, Japanese pop music group) and Babymetal in 2010. com/profile/10946646939549773398 [email protected] Nakamoto Suzuka (中元すず香) is a member of BABYMETAL and former member of Karen Girl's, and Sakura Gakuin. This means our main source of income to cover bandwidth costs is blocked when you are using our free service. The band is produced by Kobametal from the Amuse talent agency. She had won many awards. Mizuno and Suzuka Nakamoto are both known for their membership in Babymetal and Sakura Gakuin. Suzuka Nakamoto Net Worth, Age, Biography, Career, Height, Weight, Family, Wiki. The band consists of Suzuka Nakamoto as "Su-metal" (Vocal and Dance) and Moa Kikuchi as "Moametal" (Scream and Dance). BABYMETAL adalah kumpulan vokal dan tarian (kumpulan muzik) heavy metal asal Jepun yang awalnya terbentuk pada tahun 2010 sebagai sub-unit dari kumpulan idola Sakura Gakuin. But their company are trying to recapture the early innocence of AKB48, so far so good !. Apr 29, 2019- Explore tomaricoy's board "Sakura Gakuin", followed by 193 people on Pinterest. The latest Tweets from Melanie SEASON FOUR Scrofano (@MelanieScrofano). He excels at singing and rapping. Momoko Okazaki (岡崎百々子) is the 1st Ganbare! Chairman in Sakura Gakuin. The doctors proposed that they would play music that Mizuno listened to often in the waiting room, which at the time was the girl group Karen Girl's (future Babymetal co-member Suzuka Nakamoto performed in the group at the time). Archived from the original on November 19, On May 10,the promotional single "Broken Record" kfewella released. Na jar roku 2013 Suzuka Nakamoto ukončila nižšiu strednú školu a musela „zpromovať“ zo skupiny Sakura Gakuin (ktorá pozostáva z dievčat do ukončenia nižšej strednej). Their concept is a fusion of idol, pop, and Metal. Also See: Suzuka Nakamoto Bio, Age, Height, Net Worth, Boyfriend And Other Facts. 【D-10 to 2017 Nendo Transfer Ceremony】 Instead of a question, I will be sharing my prediction for the two new transferred students of 2017 Nendo (because I have promised someone on Instagram; ursa_no_yoru that I will do it 😂). Nogizaka46 (乃木坂46, Nogizaka Forty-six) is a Japanese female idol group produced by Yasushi Akimoto, built as the official rival (公式ライバル, kōshiki raibaru) of the group AKB48. In addition to his function with Mix Hard, he offers performed with a range of music artists including Babymetal and their business lead vocalist Suzuka Nakamoto. Searching for 'lolita'. Suzuka Nakamoto as 'Su-metal', Yui Mizuno as 'Yuimetal', and Moa Kikuchi as 'Moametal' from Baby Metal are seen with there award at the Relentless Energy Drink Kerrang! Awards at the Troxy on June 11, 2015 in London, England. Suzuka was a member of the Four Rakshasa Demons, who served as the Prime Minister's squad of executioners. Who is Suzuka Nakamoto? What is Suzuka Nakamoto net worth, salary and assets in 2018? What was Suzuka Nakamoto childhood and career archievments? You will find all these plus Suzuka Nakamoto age, ethnicity, nationality, height and weight information too!. BABYMETAL is a band that you'll either love or hate. Re: Nakamoto Himeka / 1st Gen I'm a big Suzuka fan and I have seen a few old performances of Himeka too, I think (A while back I looked up old videos and just kinda watched all the related ones lol) It's pretty cool she is in N46 now. She graduated January 2018. Subscribe HERE for news BOB https://goo. BabyMetal merupakan sub-unit Sakura Gakuin yang berkonsep SMP Meskipun pada tahun 2013 lalu Suzuka Nakamoto sudah lulus dari Sakura Gakuin dan karena Sakura Gakuin hanya beranggotakan anak anak SMP , jadi seharusnya Suzuka Nakamoto sudah tidak tergabung. Western and Japanese Music, Anime, Movies, Illustrations, Models, Actresses, Artists, my music and illustrations and more 洋楽、日本の音楽、アニメ、映画、イラスト、モデル、女優、アーティスト、マイミュージック、イラストなど. We sell Babymetal Suzuka Nakamoto cosplay costume. The most beautiful things on earth. Scroll below to learn details information about Suzuka Nakamoto's Salary, Earning, Cars, and Income Reports. Their vocals are backed by heavy metal instrumentation, performed by a group of session musicians known as the "Kami Band" at performances. The trio began as a subgroup of Sakura Gakuin, a more traditional-sounding J-pop act whose members leave the group once they graduate from junior high school. Please help by adding reliable sources. The concept of the group is a fusion of the metal and idol genres. 6 m) and Weight 54 kg (132 lbs). Discover (and save) your own Pins on Pinterest. 2018 Newest Women Pumps Shoes Celebrity Wearing Simple Style Sexy Thin heels Pumps Sandal High Heels Shoes Woman. txt) or read online for free. Their vocal music is backed by Kami Band heavy metal instrumentation. Download, share and comment wallpapers you like. The latest Tweets from Melanie SEASON FOUR Scrofano (@MelanieScrofano). She graduated from the group in January 2018, and retired from the entertainment industry. They are known for their energetic live shows, shows which feature intricate yet fun choreography mixed with soaring vocals from lead singer Suzuka "Su-Metal" Nakamoto, backed up by a quartet of some of Japan's top metal musicians. Babymetal (stylized as BABYMETAL) is a Japanese metal idol band. The same day DiskUnion Metal announced the best sellers of 2016 in their Online Shop. Ich manažment sa však rozhodol, že BABYMETAL sa nerozpadne, ale bude pokračovať ako skupina. So the Babymetal concert was a fantastic show. Nakamoto Suzuka is the leader for Sakura Gakuin and BABYMETAL. 226 Stream size : 313 MiB (94%) Color primaries : BT. containing the height values, and data[2] is the weight list. Suzuka Nakamoto (中元 すず香, Nakamoto Suzuka, born December 20, 1997) is a Japanese idol, singer and model. On stage, Suzuka who is also the tallest stands in the middle with Moa and Yui on either side. 22265522 >>22265439 Sure thing bud. Introduction Suzuka Nakamoto (born December 20, 1997), known by her stage name Su-Metal, is a Japanese singer known to be the main vocalist for the Metal-Pop band, BABYMETAL. Mizuno Yui, temen gw yg namanya fian dia ngidol Moa, gwa coba lihat2, data data, eh ternyata Baby Metal sub grub nya Sakura Gakuin, gwa serching, ketemu deh idol gwa, Mizuno Yui!! pernah vakum ngidol Sakura gakuin sih, tapi sekarang udah balikan :D. The source is a streaming program "Idol 36-bou" broadcast on 2013 Mar. floor jansen 937: 名無しさんのみボーナストラック収録 2015/01/26(月) 23:16:55. Babymetal released their second album, "Metal Resistance", on April 1 via RAL/Sony Music Entertainment in the U. your username. The members are young girls (kids, really): Suzuka Nakamoto as "Su-metal", Yui Mizuno as "Yuimetal", and Moa Kikuchi as "Moametal. The curved shape gives a stylish edge to your greenhouse, but it also means there is additional growing height! This great greenhouse includes a sliding door and roof vent. Hime-tan) who joined an idol girl group "Nogizaka46" (乃木坂46) in 2012 Mar. Pada musim semi 2013, Nakamoto lulus dari pendidikan menengah atasnya dan kemudian harus "lulus" dari Sakura Gakuin (sebuah grup perempuan tingkat dasar dan menengah atas). Short skirt season is finally here. Suzuka Nakamoto Net Worth, Age, Biography, Career, Height, Weight, Family, Wiki. The doctors proposed that they would play music that Yui listened to often in the waiting room, which at the time was the girl group Karen Girl's (future Babymetal co-member Suzuka Nakamoto performed in the group at the time). We provide Suzuka Nakamoto costume for adults and kids in standard sizes and Plus Size. They studied together at the Actor's School Hiroshima (ASH) and sang together in a duo known as Tween. She states that the music gave her courage and power to get through the situation, and later when her family had. Read Suzuka Nakamoto x Reader from the story BABYMETAL x Reader (One Shot) by LittleWizardLuna (BABYMETAL TRASH #1) with 642 reads. Facebook gives people the power. Notednames >> Music >> Musicians >> Suzuka Nakamoto Suzuka Nakamoto Birthday, Real Name, Age, Weight, Height, Family, Contact Details, Boyfriend(s), Bio & More Suzuka Nakamoto. For example, data[1][0] is the float 20. With music streaming on Deezer you can discover more than 56 million tracks, create your own playlists, and share your favourite tracks with your friends. Experiencing the harsh reality of life, the two are lost souls who cling onto each other for support. suzuka nakamoto on Tumblr - Find and follow posts tagged suzuka nakamoto on Tumblr. Long before BABYMETAL, her agency formed a trio called Karen Girl's, and Suzuka was selected to be in that group in 2008. Nakamoto Suzuka (中元 す ず 香) is a Japanese actress and singer under Amuse. Anonymous Thu Oct 17 05:10:32 2019 No. I recently found this interview that. Her name is Nakamoto Suzuka, and she is in a girl group called BABYMETAL. com provides custom and handmade service of BABYMETAL Suzuka Nakamoto Plush. Isono Rinon (磯野 莉音, born November 16, 2000, in Kanagawa Prefecture) is a former member of Sakura Gakuin. BABYMETAL adalah kumpulan vokal dan tarian (kumpulan muzik) heavy metal asal Jepun yang awalnya terbentuk pada tahun 2010 sebagai sub-unit dari kumpulan idola Sakura Gakuin. Also available in the dropdown menu at the top of the site. film Babymetal Live: Legend I, D, Z Apocalypse streaming vf,Babymetal Live: Legend I, D, Z Apocalypse streaming dvdrip, regarder Babymetal Live: Legend I, D, Z. Moa Kikuchi and Yui Mizuno are both 15 with Suzuka Nakamoto being the oldest at 16. She doesn't care that much for the things that might happen to her, and just goes with the flow of things. Children and Height The 26-year older MC is a father of 3 children from prior relationships: sonsJordan and Kody,and daughter Kalea Marie. Frequently asked questions about Junior idols kawaii girls. Babymetal (stylized BABYMETAL) is a Japanese idol group duo that was initially formed in 2010 in Tokyo, Japan as a subunit of the female idol group Sakura Gakuin (さくら学院). Ver más ideas sobre Bandas, Ruki the gazette y Kei visual. Their concept is a fusion of idol, pop, and Metal. Wynonna Earp. Programming. Her second sister, Himeka Nakamoto, was a member of the idol group Nogizaka46 (graduated January 2018). I am not Nutella. PERSONAL LIFE. Entertainment. This biography of a living person needs additional citations for verification. Height : 1 080 pixels Display aspect ratio : 16:9 Frame rate : 29. Suzuka Nakamoto Net Worth According to Forbes, IMDB, Wikipedia & many other online source, She is a Actor who has a net worth of $1 Million - $5 Million at the age of 22 years old. Please help by adding reliable sources. They studied together at the Actor's School Hiroshima (ASH) and sang together in a duo known as Tween. and has been a member of three musical groups formed by the company: Karen Girl's, Sakura Gakuin, and Babymetal. Hideki Aoyama. Your Internet Provider can see when you download torrents! Hide your IP ADDRESS with a VPN We strongly recommend Trust. She was a very talented child and was a youngest amongst 3 sisters. Suzuka International Racing Course, Suzuka Circuit for short, is a motorsport race track located in Ino, Suzuka City, Mie Prefecture, Japan and operated by Mobilityland Corporation, a subsidiary of Honda Motor Co. welcome to rpia! come here if you're out of ideas!. She is a former idol under Hello! Project as a member of ℃-ute. Contribute. The band consists of Suzuka Nakamoto as "Su-metal" (Vocal and Dance) and Moa Kikuchi as "Moametal" (Scream and Dance). Yuta Nakamoto is a Japanese singer based in Korea, and a member of the popular k-pop group NCT and its sub-unit NCT 127. Discover, how much money does Suzuka's have in this year. She is the leader and main vocalist of BABYMETAL and a former member of the idol groups Karen Girl's and Sakura Gakuin. Ver más ideas sobre Bandas, Ruki the gazette y Kei visual. Complete Charlotte Drury 2017 Biography. Suzuka Nakamoto Net Worth, Bio & Body Measurements - Wondering how wealthy and rich are these celebrities and how much they worth? Or maybe you're curious about their height, weight, age, bio, wealth and salary (or how much money they made) this year?. Nakamoto Suzuka (中元すず香) is a Japanese actress and singer under the agency Amuse. Nov 07 Update. Anyway-- Himeka and Suzuka are sisters and there is only about a year and half difference between them. Nakamoto Suzuka graduated from Sakura Gakuin in March 2013. Kikuchi Moa 3. Contentious material about living persons that is unsourced or poorly sourced must be removed immediately, especially if potentially libelous or harmful. He excels at singing and rapping. They don’t have any other child(ren) after her. Nov 08 Update. Mizuno Yui, temen gw yg namanya fian dia ngidol Moa, gwa coba lihat2, data data, eh ternyata Baby Metal sub grub nya Sakura Gakuin, gwa serching, ketemu deh idol gwa, Mizuno Yui!! pernah vakum ngidol Sakura gakuin sih, tapi sekarang udah balikan :D. Suzuka Nakamoto is a member of the following lists: Japanese female singers, 1997 births and People from Hiroshima Prefecture. The Abundant World Presents,Suzuka Nakamoto (Suzuka/Su-metal) Boyfriend, Car, House, Net Worth, Family, Biography, Lifestyle. Suzuka Nakamoto (中元 すず香, Nakamoto Suzuka, born December 20, 1997), known by her stage names Suzuka and Su-metal, is a Japanese idol. Did Babymetal invent 'cute metal' and what is it? Suzuka Nakamoto, 16, and 15-year-olds Moa Kikuchi and Yui Mizuno, formed a rock band without ever having heard metal music before. The second is Himeka NAKAMOTO (中元 日芽香 a. Her older sister, Himeka Nakamoto, is a member of the band Nogizaka46. com,1999:blog. Suzuka was born in December 20, 1997 in Hiroshima. Re: Nakamoto Himeka / 1st Gen I'm a big Suzuka fan and I have seen a few old performances of Himeka too, I think (A while back I looked up old videos and just kinda watched all the related ones lol) It's pretty cool she is in N46 now. Lalu, keduanya bersama Suzuka Nakamoto ( SU - METAL ) membentuk sebuah klub heavy metal yang dinamakan dengan "BABYMETAL". He is a former member of the idol group Karen Girl and Sakura Gakuin. , She's now a mental health counselor and a student of Waseda University. She is what people call a 'skip grader' (being born in 2000 she should supposedly be Jr. com/eXbByCz3 >BABYMETAL WORLD TOUR 2016: UK (Apr 2) US (May 4, 5, 7, 8, 10, 11, 13, 14, Jul 12, 14, 15, Jul 17) NL. See more ideas about Yui, Moa kikuchi and Kanagawa prefecture. The first stable line-up consisted of bandleader Brian Jones (guitar, harmonica,. Notednames >> Music >> Musicians >> Suzuka Nakamoto Suzuka Nakamoto Birthday, Real Name, Age, Weight, Height, Family, Contact Details, Boyfriend(s), Bio & More Suzuka Nakamoto. Nakamoto Suzuka (中元すず香) is a Japanese actress and singer under the agency Amuse. Number one BABYMETAL ベビーメタル source on the web we provide all the latest news, videos, photo, review about BABYMETAL, Sakura Gakuin - The Cherry Blossom Academy, Mini-Pati, Twinklestars, Pastel Wind and more. To Dance with the White Dog Shiroi inu to warutsu wo (2002) - Emi Nakamoto Jubaku: Spellbound Kin'yu fushoku retto: Jubaku (1999) - Miho Wada Summer of the Moonlight Sonata Gekko no natsu (1993) Kozure Okami: Sono chisaki te ni (1993) Deer Friend Kojika monogatari (1991) - Teacher Haruko Firenze no kaze ni dakarete (1991) - Koizumi Kumiko. The Year 2017 for Suzuka Nakamoto started with an announcement, on January 5 BABYMETAL decided to be opener for Red Hot Chili Peppers once again as they announced a new bunch of tour dates to take place in April 2017. Suzuka Nakamoto is a 21 years old Pop Singer, who was born in December, in the Year of the Ox and is a Sagittarius. Who is Suzuka Nakamoto? What is Suzuka Nakamoto net worth, salary and assets in 2018? What was Suzuka Nakamoto childhood and career archievments? You will find all these plus Suzuka Nakamoto age, ethnicity, nationality, height and weight information too!. Japanese singer known for being a part of three Amuse, Inc. Suzaku Kururugi (枢木 スザク/ くるるぎすざく), Kururugi Suzaku), 17 years old (18 at R2), is the deuteragonist of the Sunrise anime series Code Geass: Lelouch of the Rebellion, one of the antagonists of Code Geass: Akito the Exiled, and one of the protagonists of Code Geass: Lancelot& Guren. Yui and Moa first became members of the "Baton Club" and its musical group Twinklestars and later together with Suzuka Nakamoto formed a heavy music club and its heavy metal-themed group Babymetal. Your Internet Provider can see when you download torrents! Hide your IP ADDRESS with a VPN We strongly recommend Trust. com,1999:blog-4642520556392006548. She has short light blue hair. Biography / History. She is best known as the lead vocalist of kawaii metal band Babymetal. Suzuka’s birthstone is Tanzanite, Turquoise, Zircon and Topaz and birth flower is Poinsettia. She a former member of the idol groups Karen Girl's and Sakura Gakuin. Her second sister, Himeka Nakamoto, was a member of the idol group Nogizaka46 (graduated January 2018). Archived from the original on November 19, On May 10,the promotional single "Broken Record" kfewella released. They don’t have any other child(ren) after her. Profile Weight: 37kg (Possibly outdated), Family: Nakamoto Himeka (Older Sister), Collects. Programming. The trio began as a subgroup of Sakura Gakuin, a more traditional-sounding J-pop act whose members would leave the group once they graduated from junior high school. Suzuka Nakamoto, best known for being a Pop Singer, was born in Japan on Saturday, December 20, 1997. Mizuno Yui, temen gw yg namanya fian dia ngidol Moa, gwa coba lihat2, data data, eh ternyata Baby Metal sub grub nya Sakura Gakuin, gwa serching, ketemu deh idol gwa, Mizuno Yui!! pernah vakum ngidol Sakura gakuin sih, tapi sekarang udah balikan :D. Nakamoto Suzuka (中元 す ず 香) is a Japanese actress and singer under Amuse. Alissa White Gluz height 5 feet 4 inches (163 cm/ 1. , She's now a mental health counselor and a student of Waseda University. txt) or read online for free. No sex, though sometimes suggested ; Who doesn't love a naughty little schoolgirl? A sweet and innocent thing being taught just how much she loves cock?. Posts about Suzuka Nakamoto written by Rinda DiLibda. Between preoperative pain duration in FDRs internationalism stem the lack of impacts. Your Internet Provider can see when you download torrents! Hide your IP ADDRESS with a VPN We strongly recommend Trust. Or maybe you're just curious about Su-Metal's age, body measurements, height, weight, hair color, eye color, bra & waist size, bio, wiki, wealth and salary? Nakamoto Suzuka (中元 す ず 香, Nakamoto Suzuka?) (Japan, December 20, 1997) is a model, actress, dancer and singer of Japanese origin, vocalist of the band BABYMETAL. The second is Himeka NAKAMOTO (中元 日芽香 a. 2015年首日,愛爾蘭媒體網站「The Arcade」的讀者票選中,獲得「2014最佳專輯獎」與「2014最佳樂團獎」 。 1月7日,武道館演唱會的現場專輯與影像作品發行,拿到公信榜周榜排名第3名與藍光綜合排行榜第1名的成績,以15. She is an actress, Born: December 20, 1997. Notable for her work in the J-pop and heavy metal genres, she joined both Sakura Gakuin (an all-female, Japanese pop music group) and Babymetal in 2010. Jun 29, 2018- Explore thitaart's board "school_student_study_life_outfit_object" on Pinterest. Suzuka Nakamoto Description. suzuka nakamoto on Tumblr - Find and follow posts tagged suzuka nakamoto on Tumblr. Lalu, keduanya bersama Suzuka Nakamoto ( SU - METAL ) membentuk sebuah klub heavy metal yang dinamakan dengan "BABYMETAL". Facebook muestra información para que entiendas mejor la finalidad de una página. Their vocals are backed by heavy metal instrumentation, performed by a group of session musicians known as the "Kami Band" at performances. Suzuka joined Sakura Gakuin as an original member in 2010 and graduated from the group in 2012.